Brian caswell - The fifth card (Видеоурок) - Скачать

Страна: Великобритания
Тематика: Ментализм, фокусы с картами
Тип раздаваемого материала: Видеоурок
Продолжительность: 00:20:35
Язык: Английский
Перевод: Отсутствует
Превью:http://www.youtube.com/watch?feature=player_embedded&v=rRkUUfKQFQ8
Описание: Фокусник предлагает зрителю назвать 6 карт. Фокусник поочередно достает названные карты из колоды на стол лицом вверх. Допустим, это будут: 2 бубна, 3 треф, король червей, туз пик, дама червей, 8 пик. После чего фокусник переворачивает все карты кроме пятой и просит зрителя перевернуть пятую, на рубашке карты оказывается предсказание "Дама червей будет пятой картой которую вы загадаете".
Качество: DVDRip
Формат: AVI
Видео: 1337 Кбит/сек, 1280x720 (16:9), в 30,000 кадров/сек, MPEG-4 Visual (Xvid)
Аудио: 224 Кбит/сек, 44,1 КГц, 2 канала, MPEG Audio (MP3) (Version 1) (Layer 3)

lecture, free, video tutorials, classes, обучение, лекция, watching, обучение, for computer, learning, уроки, learning, слушать, для компьютера, download, dvd, обучающее видео, cassette, cd, смотреть, lessons, file, бесплатно, listening, free, файл, занятия, torrent, торрент, iso, касета, learning video, скачать, видеоуроки, educational video

Общее
Полное имя : D:\Brian caswell - The fifth card.avi
Формат : AVI
Формат/Информация : Audio Video Interleave
Размер файла : 232 Мбайт
Продолжительность : 20 м.
Общий поток : 1574 Кбит/сек
Программа кодирования : MEncoder SVN-r33883(20110719-gcc4.5.2)
Библиотека кодирования : MPlayer
Видео
Идентификатор : 0
Формат : MPEG-4 Visual
Профиль формата : Advanced [email protected]
Параметр BVOP формата : 2
Параметр QPel формата : Нет
Параметр GMC формата : Без точки перехода
Параметр матрицы формата : Default (H.263)
Идентификатор кодека : XVID
Идентификатор кодека/Подсказка : XviD
Продолжительность : 20 м.
Битрейт : 1337 Кбит/сек
Ширина : 1280 пикселей
Высота : 720 пикселей
Соотношение сторон : 16:9
Частота кадров : 30,000 кадров/сек
Цветовое пространство : YUV
Субдискретизация насыщенности : 4:2:0
Битовая глубина : 8 бит
Тип развёртки : Прогрессивная
Метод сжатия : С потерями
Бит/(Пиксели*Кадры) : 0.048
Размер потока : 197 Мбайт (85%)
Библиотека кодирования : XviD 1.2.1 (UTC 2008-12-04)
Аудио
Идентификатор : 1
Формат : MPEG Audio
Версия формата : Version 1
Профиль формата : Layer 3
Режим : Joint stereo
Расширение режима : MS Stereo
Идентификатор кодека : 55
Идентификатор кодека/Подсказка : MP3
Продолжительность : 20 м.
Вид битрейта : Постоянный
Битрейт : 224 Кбит/сек
Каналы : 2 канала
Частота : 44,1 КГц
Метод сжатия : С потерями
Задержка видео : 33 мс.
Размер потока : 33,0 Мбайт (14%)
Выравнивание : Соединение по промежуткам
Продолжительность промежутка : 26 мс. (0,78 видеокадр)
Время предзагрузки промежутка : 522 мс.
Библиотека кодирования : LAME3.98.4

[231.9 MB] Скачать / Download