Chaos Theory by Daniel Madison (Видеоурок) - Скачать

Страна: Великобритания
Тематика: Карточные фокусы
Тип раздаваемого материала: Видеоурок
Продолжительность: 00:10:53
Год выпуска: 2013
Язык: Английский
Перевод: Отсутствует
Описание: Вариация "триумфа в руках", от Даниэля Мэдисона. Все карты в колоде сохраняют своё изначальное местоположение.
Доп. информация:Описание на английском, превью, отзывы.
Качество: HDTVRip
Формат: FLV
Видео кодек: AVC
Аудио кодек: AAC
Видео: AVC, 854х580(16:9), 564kbps, 29,970fps
Аудио: AAC, 129kbps, 44,1kHz, 2ch

обучение, dvd, download, бесплатно, learning, уроки, обучающее видео, free, файл, касета, file, торрент, lessons, видеоуроки, classes, смотреть, video tutorials, learning, for computer, lecture, скачать, educational video, обучение, torrent, learning video, cassette, cd, listening, iso, watching, слушать, лекция, занятия, для компьютера, free

Код:
Формат : Flash Video
Размер файла : 54,6 Мбайт
Продолжительность : 10 м.
Общий поток : 701 Кбит/сек
httphostheader : r9---sn-5uaezne7.c.youtube.com
Видео
Формат : AVC
Формат/Информация : Advanced Video Codec
Профиль формата : [email protected]
Параметр CABAC формата : Да
Параметр ReFrames формата : 3 кадра
Идентификатор кодека : 7
Продолжительность : 10 м.
Битрейт : 564 Кбит/сек
Ширина : 854 пикселя
Высота : 480 пикселей
Соотношение сторон : 16:9
Режим частоты кадров : Постоянный
Частота кадров : 29,970 кадров/сек
Цветовое пространство : YUV
Субдискретизация насыщенности : 4:2:0
Битовая глубина : 8 бит
Тип развёртки : Прогрессивная
Бит/(Пиксели*Кадры) : 0.046
Размер потока : 43,9 Мбайт (80%)
Аудио
Формат : AAC
Формат/Информация : Advanced Audio Codec
Профиль формата : LC
Идентификатор кодека : 10
Продолжительность : 10 м.
Битрейт : 129 Кбит/сек
Каналы : 2 канала
Расположение каналов : Front: L R
Частота : 44,1 КГц
Метод сжатия : С потерями
Размер потока : 10,0 Мбайт (18%)

[54.6 MB] Скачать / Download