Control by Ollie Mealing (Видеоурок) - Скачать

Страна: США
Тематика: Фокусы с картами
Тип раздаваемого материала: Видеоурок
Продолжительность: 00:34:38
Год выпуска: 2013
Язык: Английский
Перевод: Отсутствует
Описание:ENG:
"Magnificent. So rare to be fooled and delighted". -Derren Brown
"Ollie creates an unbelievable world and leaves the audience agog with wonder. " -Tania Harrison
A highlight on the UK Festival circuit, Ollie Mealing had kept his genius relatively hidden from magicians until last year, where he began to release his Card Magic series on YouTube, playing with the mind of his spectator like a master-puppeteer in each mind-boggling video. When Daniel Madison brought Ollie to our attention in October of last year, we instantly sat up and took notice.
Before he was whisked away to work on Derren Brown's 'Infamous' tour, we brought Ollie across the pond to teach us 11 original controls - fluid, imperceptible movements that demonstrate his complete and utter command over the order, placement and position of any card he chooses.
Ollie is as in tune with the considered movement of an individual card as a concert pianist is with each key he touches. In this video he teaches the movements, subtleties and handlings to be as adept at each control as it is possible to be.
RUS:11 Контролей карт, вниз и вверх.
Cписок контролейКачество: DVDRip
Формат: MP4
Видео кодек: AVC
Аудио кодек: AC3
Видео: AVC, 960x540, (16:9), 1500 kbps, 29.97 fps
Аудио: AC-3, 384 kbps, 44.1 kHz, 2 channels

смотреть, касета, лекция, file, файл, скачать, free, torrent, lecture, cassette, learning, lessons, торрент, iso, cd, бесплатно, learning, free, listening, уроки, for computer, download, видеоуроки, watching, classes, обучение, video tutorials, слушать, educational video, обучение, обучающее видео, learning video, занятия, dvd, для компьютера

Chasm
A Card is peeked in the middle of the pack and the deck squared. With a quick fan, the selected card is now positioned at the bottom of the pack.
Bionic
The deck is spread and a card down-jogged. The deck is closed and it's only at the last minute that the jogged-card is pushed flush. The top card can immediately be shown to be the selection.
Behind Bars
A card is selected from the pack and the deck fanned to allow reinsertion. The deck is cleanly squared, and the selection is now ready to be bottom-palmed off for later use.
Reload
The cards are dribbled into the hand and a selection fairly chosen. The dribble is completed on top of the selection, the deck spread lengthways, and re-squared. Where an instant before it was in the middle of the spread, the chosen card has somehow made it's way to the bottom of the pack.
Daredevil
The cards are riffled off the fingers until the spectator indicates a choice. The spectator is shown the selection one last time before the deck is squared. Once again, it's moved its way to the bottom of the deck.
Compass
A selection and control wrapped up in a tumbling flourish. A chosen card is shown fairly in the spread and inserted into the centre of a fan. With the lose of the fan, the card is now on the bottom of the deck.
Regurgitate
A must for any ACR where a table is close by. The deck is spread showing the selection in the middle of the pack before the spread is closed. The card's just done what every good ambitious card should do.
Tumble
A packet flipping control that's simple, direct and utterly impossible. The selection is fairly shown in the middle of the deck, but is back on top when the cut is completed. You'll fool even yourself with this one.
Suspension
A tabled cut shows a card in the middle of the deck. The card is riffled shuffled into the pack, remaining out-jogged until the two packets are squared. The deck can be instantly flipped to show the card has moved to the bottom of the deck.
Time Will Tell
We're going to have to find a way to work this into every trick we do. The deck is cut, leaving one card balanced on the thumb. The card pirouettes as the other half of the deck is spread on the table. The spread is completed with the chosen card in the middle. On squaring the pack, the spun card has shifted to the bottom of the deck.
Poison
As clean as any control can be. Poison is like a spread pass without the need for a pass. The deck is spread, a card shown, and the spread closed. The chosen card is now on top of the deck. This move will have spectators looking for the duplicate still in the middle of the pack.
Format : MPEG-4
Format profile : Base Media
Codec ID : isom
File size : 468 MiB
Duration : 34mn 38s
Overall bit rate : 1 887 Kbps
Encoded date : UTC 2013-06-11 18:15:17
Tagged date : UTC 2013-06-11 18:15:17
Video
ID : 1
Format : AVC
Format/Info : Advanced Video Codec
Format profile : [email protected]
Format settings, CABAC : Yes
Format settings, ReFrames : 4 frames
Codec ID : avc1
Codec ID/Info : Advanced Video Coding
Duration : 34mn 38s
Bit rate mode : Variable
Bit rate : 1 500 Kbps
Maximum bit rate : 3 877 Kbps
Width : 960 pixels
Height : 540 pixels
Display aspect ratio : 16:9
Frame rate mode : Constant
Frame rate : 29.970 fps
Resolution : 8 bits
Colorimetry : 4:2:0
Scan type : Progressive
Bits/(Pixel*Frame) : 0.097
Stream size : 372 MiB (79%)
Title : wmv.264#trackID=1:[email protected]
Writing library : x264 core 133 r2334 a3ac64b
Encoding settings : cabac=1 / ref=3 / deblock=1:0:0 / analyse=0x3:0x113 / me=hex / subme=7 / psy=1 / psy_rd=1.00:0.00 / mixed_ref=1 / me_range=16 / chroma_me=1 / trellis=1 / 8x8dct=1 / cqm=0 / deadzone=21,11 / fast_pskip=1 / chroma_qp_offset=-2 / threads=6 / lookahead_threads=1 / sliced_threads=0 / nr=0 / decimate=1 / interlaced=0 / bluray_compat=0 / constrained_intra=0 / bframes=3 / b_pyramid=2 / b_adapt=1 / b_bias=0 / direct=1 / weightb=1 / open_gop=0 / weightp=2 / keyint=300 / keyint_min=29 / scenecut=40 / intra_refresh=0 / rc_lookahead=40 / rc=2pass / mbtree=1 / bitrate=1500 / ratetol=1.0 / qcomp=0.60 / qpmin=0 / qpmax=69 / qpstep=4 / cplxblur=20.0 / qblur=0.5 / ip_ratio=1.40 / aq=1:1.00
Encoded date : UTC 2013-06-11 18:15:17
Tagged date : UTC 2013-06-11 18:17:36
Audio
ID : 2
Format : AC-3
Format/Info : Audio Coding 3
Codec ID : ac-3
Duration : 34mn 38s
Bit rate mode : Constant
Bit rate : 384 Kbps
Channel(s) : 2 channels
Channel positions : L R
Sampling rate : 44.1 KHz
Resolution : 16 bits
Stream size : 95.2 MiB (20%)
Title : ac3#[email protected]
Encoded date : UTC 2013-06-11 18:17:30
Tagged date : UTC 2013-06-11 18:17:36

[467.7 MB] Скачать / Download