Cookie cutter / Cookie cutter by Dan Sperry (Видеоурок) - Скачать

Страна: Las Vegas
Тематика: Ментализм
Тип раздаваемого материала: Видеоурок
Продолжительность: 00:19:51
Год выпуска: 2010
Язык: Английский
Перевод: Отсутствует
Описание: The magician places a genuine razor blade inside of one of four Oreos. With your back turned, the cookies are mixed - yet you are able to accurately determine which cookie the blade resides in.
Tried and tested by Dan Sperry for safety, simplicity, and shock effect.
Don't want to use razor blades? No problem. Cookie Cutter can be performed with ANY small object including a coin, soda tab, or even a torn corner inside the cookie for a unique card revelation.
Dan Sperry teaches everything you need to know to perform this incredible magic trick flawlessly - including how to avoid failure - in 20 minutes of detailed high definition instruction.
Клёвый трюк, вообще зашибись =)
Доп. информация: Оригинал:http://www.theory11.com/tricks/cookie-cutter-dan-sperry.php
Я НЕ ЗНАЮ ГДЕ ВЫ ДОСТАНЕТЕ OREO ВОЗЬМИТЕ ОБЫЧНЫЕ ПЕЧЕНЬЯ ПОХОЖИЕ НА ГРЕЦКИЙ ОРЕХ!
Качество: WEBRip
Формат: MP4
Видео кодек: AVC
Аудио кодек: AAC
Видео: Кодек: H264 - MPEG-4 AVC (part 10) (avc1) Разрешение: 640x360 Частота кадров: 25
Аудио: Кодек: MPEG AAC Audio (mp4a) Каналы: стерео Частота дискретизации: 44100 Гц

listening, learning, iso, file, video tutorials, free, смотреть, бесплатно, скачать, lecture, для компьютера, касета, cd, уроки, lessons, cassette, обучение, dvd, download, classes, лекция, торрент, free, обучение, слушать, видеоуроки, watching, занятия, educational video, обучающее видео, learning, torrent, for computer, learning video, файл

General
Complete name : C:\Users\0\Downloads\Coockie Cutter by Dan Sperry.mp4
Format : MPEG-4
Format profile : Base Media
Codec ID : isom
File size : 79.3 MiB
Duration : 19mn 51s
Overall bit rate mode : Variable
Overall bit rate : 559 Kbps
Writing application : Lavf52.40.0
Video
ID : 1
Format : AVC
Format/Info : Advanced Video Codec
Format profile : [email protected]
Format settings, CABAC : No
Format settings, ReFrames : 1 frame
Codec ID : avc1
Codec ID/Info : Advanced Video Coding
Duration : 19mn 51s
Bit rate : 426 Kbps
Nominal bit rate : 450 Kbps
Width : 640 pixels
Height : 360 pixels
Display aspect ratio : 16:9
Frame rate mode : Constant
Frame rate : 25.000 fps
Color space : YUV
Chroma subsampling : 4:2:0
Bit depth : 8 bits
Scan type : Progressive
Bits/(Pixel*Frame) : 0.074
Stream size : 60.5 MiB (76%)
Writing library : x264 core 79
Encoding settings : cabac=0 / ref=1 / deblock=1:0:0 / analyse=0x1:0x131 / me=tesa / subme=9 / psy=1 / psy_rd=1.0:0.0 / mixed_ref=0 / me_range=24 / chroma_me=1 / trellis=0 / 8x8dct=0 / cqm=0 / deadzone=21,11 / chroma_qp_offset=-2 / threads=24 / nr=0 / decimate=1 / mbaff=0 / constrained_intra=0 / bframes=0 / wpredp=0 / keyint=250 / keyint_min=25 / scenecut=40 / rc_lookahead=40 / rc=cbr / mbtree=1 / bitrate=450 / ratetol=8.9 / qcomp=0.60 / qpmin=10 / qpmax=51 / qpstep=4 / vbv_maxrate=10000 / vbv_bufsize=10000 / ip_ratio=1.41 / aq=1:1.00
Audio
ID : 2
Format : AAC
Format/Info : Advanced Audio Codec
Format profile : LC
Codec ID : 40
Duration : 19mn 51s
Bit rate mode : Variable
Bit rate : 128 Kbps
Channel(s) : 2 channels
Channel positions : Front: L R
Sampling rate : 44.1 KHz
Compression mode : Lossy
Stream size : 18.2 MiB (23%)

[79.3 MB] Скачать / Download