Daniel Garcia - Penguin Live - Скачать

Penguin Live
by Daniel Garcia
Тип раздаваемого материала: Лекция
Продолжительность: 03:33:57
Год выпуска: 2012 [30.06.12]
Перевод: Отсутствует
Язык: Английский
Страна: USA

Описание:
Live от немало известного Daniel Garcia, с ответами на вопросы, юмором, и конечно фокусами.
Демо можно посмотреть ЗДЕСЬ Под споилером ниже, есть отзывы.

Тех. данные:
Видео: AVC, 640х360, 16:9, 685 Kbps, 25.000 fps
Аудио: AAC, 68.7 Kbps, 44.1 KHz, 2 channels

файл, torrent, торрент, обучающее видео, обучение, касета, смотреть, educational video, classes, cassette, learning, lessons, cd, lecture, обучение, learning video, watching, download, слушать, free, iso, for computer, занятия, free, listening, видеоуроки, бесплатно, для компьютера, лекция, file, уроки, video tutorials, learning, скачать, dvd

General
Complete name : Danny Garcia - Penguin Live.mp4
Format : MPEG-4
Format profile : Base Media
Codec ID : isom
File size : 1.02 GiB
Duration : 3h 33mn
Overall bit rate mode : Variable
Overall bit rate : 685 Kbps
Encoded date : UTC 2012-07-01 03:19:38
Tagged date : UTC 2012-07-01 03:19:38
Video
ID : 1
Format : AVC
Format/Info : Advanced Video Codec
Format profile : [email protected]
Format settings, CABAC : No
Format settings, ReFrames : 3 frames
Codec ID : avc1
Codec ID/Info : Advanced Video Coding
Duration : 3h 33mn
Bit rate : 614 Kbps
Maximum bit rate : 2 263 Kbps
Width : 640 pixels
Height : 360 pixels
Display aspect ratio : 16:9
Frame rate mode : Constant
Frame rate : 25.016 fps
Color space : YUV
Chroma subsampling : 4:2:0
Bit depth : 8 bits
Scan type : Progressive
Bits/(Pixel*Frame) : 0.107
Stream size : 940 MiB (90%)
Writing library : Zencoder Video Encoding System
Encoded date : UTC 2012-07-01 03:02:30
Tagged date : UTC 2012-07-01 03:19:50
Audio
ID : 2
Format : AAC
Format/Info : Advanced Audio Codec
Format profile : LC
Codec ID : 40
Duration : 3h 33mn
Bit rate mode : Variable
Bit rate : 68.7 Kbps
Maximum bit rate : 97.9 Kbps
Channel(s) : 2 channels
Channel positions : Front: L R
Sampling rate : 44.1 KHz
Compression mode : Lossy
Stream size : 105 MiB (10%)
Encoded date : UTC 2012-07-01 03:19:45
Tagged date : UTC 2012-07-01 03:19:50

[1.02 GB] Скачать / Download