Лекция Девина Найта / Penguin Lecture - Devin Knight (Видеоурок) - Скачать

Страна: США
Тематика: фокусы
Тип раздаваемого материала: Видеоурок
Продолжительность: 3:46:15
Год выпуска: 2013
Язык: Английский
Перевод: Отсутствует
Описание:Девин Найт- фокусник старой школы, за свою продолжительную карьеру приложивший руки к различным сторонам (разделам) магии. В лекции он демонстрирует трюки с ложкой, лампочкой, шахматами (в смысле фигур как предметов, а не собственно игры) и, конечно, картами. Обстоятельное выступление, двумя словами.
Качество: WEBRip
Формат: MP4
Видео кодек: H.264
Аудио кодек: AAC
Видео: AVC, 640х360, 838 Kbps, 29.970 fps, 0.121 bit/pixel
Аудио: AAC, 72,0 Kbps, 48 KHz, 2 channels

learning video, file, free, learning, cassette, free, занятия, обучение, lessons, cd, лекция, обучающее видео, видеоуроки, обучение, смотреть, for computer, касета, download, уроки, бесплатно, скачать, educational video, торрент, torrent, lecture, dvd, для компьютера, listening, iso, learning, файл, слушать, video tutorials, classes, watching

Общее
Полное имя : D:\bin\Penguin Lecture - Devin Knight.mp4
Формат : MPEG-4
Профиль формата : Base Media
Идентификатор кодека : isom
Размер файла : 1,45 Гбайт
Продолжительность : 3 ч. 46 м.
Режим общего битрейта : Переменный
Общий поток : 914 Кбит/сек
Дата кодирования : UTC 2013-08-05 05:36:33
Дата пометки : UTC 2013-08-05 05:36:33
Видео
Идентификатор : 1
Формат : AVC
Формат/Информация : Advanced Video Codec
Профиль формата : [email protected]
Параметр CABAC формата : Нет
Параметр ReFrames формата : 3 кадра
Идентификатор кодека : avc1
Идентификатор кодека/Информация : Advanced Video Coding
Продолжительность : 3 ч. 46 м.
Битрейт : 838 Кбит/сек
Максимальный битрейт : 3200 Кбит/сек
Ширина : 640 пикселей
Высота : 360 пикселей
Соотношение сторон : 16:9
Режим частоты кадров : Постоянный
Частота кадров : 29,970 кадров/сек
Цветовое пространство : YUV
Субдискретизация насыщенности : 4:2:0
Битовая глубина : 8 бит
Тип развёртки : Прогрессивная
Бит/(Пиксели*Кадры) : 0.121
Размер потока : 1,33 Гбайт (92%)
Библиотека кодирования : Zencoder Video Encoding System
Дата кодирования : UTC 2013-08-05 04:52:47
Дата пометки : UTC 2013-08-05 05:37:23
Аудио
Идентификатор : 2
Формат : AAC
Формат/Информация : Advanced Audio Codec
Профиль формата : LC
Идентификатор кодека : 40
Продолжительность : 3 ч. 46 м.
Вид битрейта : Переменный
Битрейт : 72,0 Кбит/сек
Максимальный битрейт : 93,6 Кбит/сек
Каналы : 2 канала
Расположение каналов : Front: L R
Частота : 48,0 КГц
Метод сжатия : С потерями
Размер потока : 119 Мбайт (8%)
Дата кодирования : UTC 2013-08-05 05:37:14
Дата пометки : UTC 2013-08-05 05:37:23

[1.45 GB] Скачать / Download