Michael James - Solo / Michael James - Solo (Видеоурок) - Скачать

Страна: USA
Тематика: Cardistry
Тип раздаваемого материала: Видеоурок
Год выпуска: 2011
Язык: Английский
Перевод: Отсутствует
Описание: It’s 52 against one. Beat the odds. Discover Solo.
It all started in 2008 when Michael James began to develop card flourishes. In a world that is overflowing with extra long dribbles and unnatural geometric displays, Michael favors a classic approach where fluid and expressive motions are top priority in a card flourish. That is what you’ll find in Solo: Ten unique flourishes that demonstrate smoothness and articulation above anything else.
One of the most comprehensive cardistry projects ever produced.
A production that started nearly eight months ago has in fact been in the works for four years. Michael's style is inspired by card mavericks Brian Tudor, the Buck Twins, and Kevin Ho. These aren’t cuts you’re going to learn and forget in a day. Each cut is vastly different from the other, giving you a diverse collection that will broaden your arsenal.
Solo is divided into three categories: Signature Flourishes, Bonus Collection, and Special Features. It contains over 90 minutes of cardistry training.
In the Signature Flourishes section, you'll find ten unique flourishes: Arriflex, Ekklesia, Collective, Elysium, Twistor, Tidalwave, Reich, Reinvention, Mysterium, and Zero. Nine of the flourishes are two-handed cuts and one flourish is a single card flourish. Each flourish includes an introduction, performance, verbal explanation, and slow movement performance.
The Bonus Collection includes four bonus moves: Upload, Skydive, Whirlpool, and Elite. These are short, simple flourishes designed to perform on the fly. Each move contains a performance, overview, and verbal explanation.
We made a conscious effort to include as much special features as possible. What's included: Original Trailer, Seamless Motion, Jikh and James, Rediscover Identity, Solo Outtakes, Interview with Michael James, and Credits with anamorphic footage.
Небезызвестный "Соло" от Майкла Джеймса
Качество: DVDRip
Формат: MP4
Видео кодек: AAV
Аудио кодек: AAC
всё остальное: кому что надо всё смотрите под спойлером,я в этом не разбираюсь

video tutorials, обучение, watching, файл, cassette, касета, бесплатно, слушать, видеоуроки, скачать, занятия, lessons, file, смотреть, обучение, cd, educational video, torrent, dvd, lecture, learning, уроки, free, for computer, learning video, торрент, listening, free, download, обучающее видео, для компьютера, classes, лекция, iso, learning

Format : MPEG-4
Format profile : Base Media / Version 2
Codec ID : mp42
File size : 154 MiB
Duration : 55mn 53s
Overall bit rate mode : Variable
Overall bit rate : 385 Kbps
Encoded date : UTC 2012-04-10 18:11:29
Tagged date : UTC 2012-04-10 18:11:29
gsst : 0
gstd : 3353448
gssd : B4A7DDA88MH1334169715240703
gshh : o-o.preferred.fra07t11.v8.cache5.c.youtube.com
Video
ID : 1
Format : AVC
Format/Info : Advanced Video Codec
Format profile : [email protected]
Format settings, CABAC : No
Format settings, ReFrames : 1 frame
Format settings, GOP : M=1, N=30
Codec ID : avc1
Codec ID/Info : Advanced Video Coding
Duration : 55mn 53s
Bit rate : 286 Kbps
Maximum bit rate : 1 273 Kbps
Width : 640 pixels
Height : 360 pixels
Display aspect ratio : 16:9
Frame rate mode : Constant
Frame rate : 25.000 fps
Color space : YUV
Chroma subsampling : 4:2:0
Bit depth : 8 bits
Scan type : Progressive
Bits/(Pixel*Frame) : 0.050
Stream size : 114 MiB (74%)
Tagged date : UTC 2012-04-10 18:11:30
Audio
ID : 2
Format : AAC
Format/Info : Advanced Audio Codec
Format profile : LC
Codec ID : 40
Duration : 55mn 53s
Bit rate mode : Variable
Bit rate : 96.0 Kbps
Maximum bit rate : 150 Kbps
Channel(s) : 2 channels
Channel positions : Front: L R
Sampling rate : 44.1 KHz
Compression mode : Lossy
Stream size : 38.4 MiB (25%)
Title : IsoMedia File Produced by Google, 5-11-2011

[222.4 MB] Скачать / Download