Robert Smith - Glitch (Видеоурок) - Скачать

Тип раздаваемого материала: Видеоурок
Продолжительность: 00:41:40
Год выпуска: 2010
Язык: Английский
Перевод: Отсутствует
Описание: Парочка сменок монетки. Например монетки на ключ , смена монеток на ладонях, перемещение монетки с одной ладони на другую. Без гиммиков!!!!
Доп. информация:http://www.youtube.com/watch?v=RLwzxGPP1BA
Качество:DVDRip
Формат: AVI

для компьютера, classes, видеоуроки, файл, free, lecture, бесплатно, лекция, обучение, торрент, слушать, dvd, free, learning, обучающее видео, касета, for computer, скачать, educational video, watching, learning, iso, listening, learning video, cd, cassette, уроки, lessons, file, torrent, video tutorials, обучение, занятия, смотреть, download

General
Complete name : C:\Users\Денис\Desktop\Фокусы\B. Smith - Glitch\B. Smith - Glitch.mp4
Format : MPEG-4
Format profile : Base Media
Codec ID : isom
File size : 636 MiB
Duration : 41mn 40s
Overall bit rate : 2 133 Kbps
Video
ID : 1
Format : MPEG-4 Visual
Format profile : [email protected]
Format settings, BVOP : No
Format settings, QPel : No
Format settings, GMC : No warppoints
Format settings, Matrix : Default (H.263)
Codec ID : 20
Duration : 41mn 40s
Bit rate mode : Variable
Bit rate : 2 001 Kbps
Width : 720 pixels
Height : 400 pixels
Display aspect ratio : 16:9
Frame rate mode : Constant
Frame rate : 29.970 fps
Resolution : 8 bits
Colorimetry : 4:2:0
Scan type : Progressive
Bits/(Pixel*Frame) : 0.232
Stream size : 596 MiB (94%)
Writing library : Lavc51.40.4
Audio
ID : 2
Format : AAC
Format/Info : Advanced Audio Codec
Format version : Version 4
Format profile : LC
Format settings, SBR : No
Codec ID : 40
Duration : 41mn 40s
Bit rate mode : Variable
Bit rate : 128 Kbps
Channel(s) : 2 channels
Channel positions : L R
Sampling rate : 48.0 KHz
Stream size : 38.1 MiB (6%)

[635.9 MB] Скачать / Download