Safety by chris mayhew / Safety by chris mayhew (ММ) - Скачать

Страна: Америка
Тематика: Фокусы
Тип раздаваемого материала: Мультимедийный диск
Продолжительность: 00:23:08
Год выпуска: 2012
Язык: Английский
Перевод: Отсутствует
Описание: Safety is Chris Mayhew's streamlined approach to the classic linking safety pin plot. Two safety pins visually link and unlink/
Версия Криса Майхева классического трюка "сцепление булавок" отличный фокус, отличный гиммик
Качество: DVDRip
Формат: MP4
Видео кодек: H.264
Аудио кодек: AAC
Системные требования: главное чтобы читал mp4
Видео: Кодек: H264 - MPEG-4 AVC (part 10) (avc1) Разрешение: 320x214 Частота кадров: 23.976519
Аудио: Кодек: MPEG AAC Audio (mp4a) Каналы: стерео Частота дискретизации: 44100 Гц

обучение, лекция, файл, обучающее видео, касета, обучение, скачать, смотреть, learning video, cassette, download, educational video, video tutorials, dvd, file, iso, classes, lessons, watching, для компьютера, free, lecture, for computer, free, listening, торрент, занятия, уроки, learning, видеоуроки, learning, слушать, бесплатно, cd, torrent

General
Complete name : C:\Users\0\Downloads\Chris Mayhew - Safety.mp4
Format : MPEG-4
Format profile : Base Media
Codec ID : isom
File size : 56.9 MiB
Duration : 23mn 8s
Overall bit rate mode : Variable
Overall bit rate : 344 Kbps
Writing application : Lavf52.40.0
Video
ID : 1
Format : AVC
Format/Info : Advanced Video Codec
Format profile : [email protected]
Format settings, CABAC : No
Format settings, ReFrames : 16 frames
Codec ID : avc1
Codec ID/Info : Advanced Video Coding
Duration : 23mn 8s
Bit rate : 220 Kbps
Width : 320 pixels
Height : 214 pixels
Display aspect ratio : 16:9
Frame rate mode : Variable
Frame rate : 23.976 fps
Original frame rate : 25.000 fps
Minimum frame rate : 12.500 fps
Maximum frame rate : 25.000 fps
Color space : YUV
Chroma subsampling : 4:2:0
Bit depth : 8 bits
Scan type : Progressive
Bits/(Pixel*Frame) : 0.134
Stream size : 35.0 MiB (61%)
Writing library : x264 core 79
Encoding settings : cabac=0 / ref=16 / deblock=1:0:0 / analyse=0x1:0x131 / me=tesa / subme=9 / psy=1 / psy_rd=1.0:0.0 / mixed_ref=1 / me_range=24 / chroma_me=1 / trellis=0 / 8x8dct=0 / cqm=0 / deadzone=21,11 / chroma_qp_offset=-2 / threads=24 / nr=0 / decimate=1 / mbaff=0 / constrained_intra=0 / bframes=0 / wpredp=0 / keyint=250 / keyint_min=25 / scenecut=40 / rc_lookahead=40 / rc=cbr / mbtree=1 / bitrate=220 / ratetol=18.2 / qcomp=0.60 / qpmin=10 / qpmax=51 / qpstep=4 / vbv_maxrate=768 / vbv_bufsize=3000 / ip_ratio=1.41 / aq=1:1.00
Audio
ID : 2
Format : AAC
Format/Info : Advanced Audio Codec
Format profile : LC
Codec ID : 40
Duration : 23mn 8s
Bit rate mode : Variable
Bit rate : 128 Kbps
Channel(s) : 2 channels
Channel positions : Front: L R
Sampling rate : 44.1 KHz
Compression mode : Lossy
Stream size : 21.2 MiB (37%)

[56.9 MB] Скачать / Download