Smiley by Laurent Mikelfield (Видеоурок) - Скачать

Страна: USA
Тематика: Фокусы с картами
Тип раздаваемого материала: Видеоурок
Продолжительность: 00:23:51
Год выпуска: 2012
Язык: Английский
Перевод: Отсутствует
Описание: Cмайл перескакивает с верхней карты на карту зрителя. Очень эффектно и визуально. Карта подписывается зрителем.
Доп. информация: гиммик в принципе сделать можно
Формат: FLV

файл, learning, free, free, for computer, download, educational video, лекция, обучение, обучающее видео, cassette, занятия, learning, iso, dvd, cd, listening, торрент, lessons, уроки, слушать, видеоуроки, обучение, скачать, learning video, video tutorials, watching, смотреть, бесплатно, file, torrent, касета, classes, для компьютера, lecture

Format : Flash Video
File size : 88.8 MiB
Duration : 23mn 50s
Overall bit rate : 520 Kbps
httphostheader : r8---sn-4g57kuer.c.youtube.com
Video
Format : AVC
Format/Info : Advanced Video Codec
Format profile : [email protected]
Format settings, CABAC : Yes
Format settings, ReFrames : 3 frames
Codec ID : 7
Duration : 23mn 51s
Bit rate : 383 Kbps
Width : 640 pixels
Height : 480 pixels
Display aspect ratio : 4:3
Frame rate mode : Constant
Frame rate : 30.000 fps
Color space : YUV
Chroma subsampling : 4:2:0
Bit depth : 8 bits
Scan type : Progressive
Bits/(Pixel*Frame) : 0.042
Stream size : 65.3 MiB (74%)
Audio
Format : AAC
Format/Info : Advanced Audio Codec
Format profile : LC
Codec ID : 10
Duration : 23mn 51s
Bit rate : 129 Kbps
Channel(s) : 2 channels
Channel positions : Front: L R
Sampling rate : 44.1 KHz
Compression mode : Lossy
Stream size : 22.0 MiB (25%)

[88.8 MB] Скачать / Download