World's Greatest Magic - Money Magic (Видеоурок) - Скачать

Страна: США
Тематика: Фокусы с деньгами
Тип раздаваемого материала: Видеоурок
Продолжительность: 01:50:48
Год выпуска: 2005
Язык: Английский
Перевод: Отсутствует
Описание: 17 фокусов с купюрами: восстановления, подмены, трансформации и т.д.Доп. информация:Описание на английском и превью
Качество: DVDRip
Формат: AVI
Видео кодек: XviD
Аудио кодек: AC3
Видео: XviD, 464x362, (4:3), 742kbps, 29,970fps
Аудио: AC3, 192kbps, 49kHz, 2ch

educational video, dvd, смотреть, file, обучение, listening, файл, видеоуроки, торрент, бесплатно, learning video, classes, занятия, касета, free, iso, обучение, learning, лекция, torrent, for computer, cassette, learning, для компьютера, lessons, обучающее видео, download, watching, уроки, free, video tutorials, cd, скачать, слушать, lecture

BeSwitched
The Bill Tear
The Greatest Illusion Ever Created Money
Torn and Restored Bill
Presidential Expression
Suspended Funds
Acrobaticlips
Now U Z It
Dirty T & R
Traveling Expenses
Rubik's Dollar Bill
Growing Toothpick
The Bill Roll
The Burned Bill
Fast Eddie Smith
Bunny Bill
Paper Money
Код:
Общее
Полное имя : C:\Users\msi\Downloads\Раздачи\Worlds Greatest Magic Series\WGM - Money Magic\Worlds Greatest Magic - Money Magic.avi
Формат : AVI
Формат/Информация : Audio Video Interleave
Размер файла : 747 Мбайт
Продолжительность : 1 ч. 50 м.
Общий поток : 942 Кбит/сек
Программа кодирования : VirtualDubMod 1.5.4.1 (build 2178/release)
Библиотека кодирования : VirtualDubMod build 2178/release
Видео
Идентификатор : 0
Формат : MPEG-4 Visual
Профиль формата : Advanced [email protected]
Параметр BVOP формата : 1
Параметр QPel формата : Нет
Параметр GMC формата : Без точки перехода
Параметр матрицы формата : Выборочная
Идентификатор кодека : XVID
Идентификатор кодека/Подсказка : XviD
Продолжительность : 1 ч. 50 м.
Битрейт : 742 Кбит/сек
Ширина : 464 пикселя
Высота : 352 пикселя
Соотношение сторон : 4:3
Частота кадров : 29,970 кадров/сек
Цветовое пространство : YUV
Субдискретизация насыщенности : 4:2:0
Битовая глубина : 8 бит
Тип развёртки : Прогрессивная
Метод сжатия : С потерями
Бит/(Пиксели*Кадры) : 0.152
Размер потока : 588 Мбайт (79%)
Библиотека кодирования : XviD 1.0.3 (UTC 2004-12-20)
Аудио
Идентификатор : 1
Формат : AC-3
Формат/Информация : Audio Coding 3
Профиль формата : Dolby Digital
Расширение режима : CM (complete main)
Параметр Endianness формата : Big
Идентификатор кодека : 2000
Продолжительность : 1 ч. 50 м.
Вид битрейта : Постоянный
Битрейт : 192 Кбит/сек
Каналы : 2 канала
Расположение каналов : Front: L R
Частота : 48,0 КГц
Битовая глубина : 16 бит
Метод сжатия : С потерями
Размер потока : 152 Мбайт (20%)
Выравнивание : Разделение по промежуткам
Продолжительность промежутка : 96 мс. (2,88 видеокадра)
Время предзагрузки промежутка : 96 мс.
Язык : English

[746.5 MB] Скачать / Download